<?xml version="1.0" standalone="no"?>
<!DOCTYPE svg PUBLIC "-//W3C//DTD SVG 1.1//EN" "http://www.w3.org/Graphics/SVG/1.1/DTD/svg11.dtd">
<svg xmlns="http://www.w3.org/2000/svg">
<defs >
<font id="ZillaSlab" horiz-adv-x="551" ><font-face
    font-family="Zilla Slab"
    units-per-em="1000"
    panose-1="0 0 0 0 0 0 0 0 0 0"
    ascent="944"
    descent="-256"
    alphabetic="0" />
<glyph unicode=" " glyph-name="uni0020" horiz-adv-x="187" />
<glyph unicode="!" glyph-name="uni0021" horiz-adv-x="261" d="M207 650L177 232H83L53 650H207ZM56 0V145H207V0H56Z" />
<glyph unicode="&quot;" glyph-name="uni0022" horiz-adv-x="387" d="M158 377H49L39 650H168L158 377ZM338 377H229L219 650H348L338 377Z" />
<glyph unicode="#" glyph-name="uni0023" horiz-adv-x="574" d="M510 521L490 420H543V322H472L448 199H513V101H429L410 0H300L319 101H190L171 0H61L80 101H31V199H99L123 322H61V420H141L161 521H271L251 420H380L400 521H510ZM209 199H338L362 322H233L209 199Z" />
<glyph unicode="$" glyph-name="uni0024" horiz-adv-x="491" d="M462 162Q462 88 412 46T283 -5V-65H219V-7Q163 -5 116 10T37 47L56 178L164 170L160 111Q174 104 189 100T219 95V224H218Q176 232 136 244T69 284T42 369Q42 453 98 487T219 527V593H283V528Q331
524 369 511T434 479L447 351L339 343L327 412Q306 422 283 425V323Q312 318 354 304T429 257T462 162ZM181 384Q181 353 219 338V424Q181 415 181 384ZM323 147Q323 186 283 205V98Q323 109 323 147Z" />
<glyph unicode="%" glyph-name="uni0025" horiz-adv-x="738" d="M184 240Q108 240 68 281T27 384Q27 446 69 488T188 531Q264 531 303 489T342 387Q342 325 301 283T184 240ZM635 521L426 259L231 0H97L332 285L501 521H635ZM184 322Q206 322 222 336T238 386Q238
421 223 435T186 449Q164 449 148 435T131 385Q131 350 146 336T184 322ZM553 -10Q476 -10 436 31T396 134Q396 196 438 238T557 281Q634 281 672 239T711 137Q711 75 671 33T553 -10ZM553 72Q576 72 591 86T607 136Q607 171 592 185T555 199Q532 199 516 185T500
135Q500 100 515 86T553 72Z" />
<glyph unicode="&amp;" glyph-name="uni0026" horiz-adv-x="702" d="M436 385H687V271H623Q589 194 520 127Q557 113 591 113Q625 113 655 126L682 16Q656 2 627 -4T570 -10Q488 -10 403 39Q362 16 318 3T229 -10Q158 -10 91 28T23 152Q23 219 63 254T152 315Q112
401 112 473Q112 543 156 601T308 660Q390 660 440 621T490 511Q490 444 442 403T300 315Q356 228 439 170Q471 210 485 271H436V385ZM358 505Q358 519 350 540T305 562Q261 562 252 532T242 484Q242 433 267 377Q318 410 338 441T358 505ZM186 253Q151 222 151
178Q151 132 184 116T266 99Q290 99 315 102Q237 171 186 253Z" />
<glyph unicode="&apos;" glyph-name="uni0027" horiz-adv-x="208" d="M158 377H49L39 650H168L158 377Z" />
<glyph unicode="(" glyph-name="uni0028" horiz-adv-x="289" d="M184 718H298Q132 507 132 270Q132 154 173 37T298 -183H182Q99 -73 61 41T23 270Q23 386 62 499T184 718Z" />
<glyph unicode=")" glyph-name="uni0029" horiz-adv-x="289" d="M105 -183H-9Q157 28 157 265Q157 381 116 497T-9 718H107Q190 608 228 494T266 265Q266 150 227 37T105 -183Z" />
<glyph unicode="*" glyph-name="uni002A" horiz-adv-x="416" d="M386 532L280 479L386 426L338 351L245 414L252 309H163L170 413L78 351L30 426L135 479L30 532L77 607L171 543L163 650H252L244 542L339 607L386 532Z" />
<glyph unicode="+" glyph-name="uni002B" horiz-adv-x="401" d="M27 237V325H159V455H247V325H374V237H247V108H159V237H27Z" />
<glyph unicode="," glyph-name="uni002C" horiz-adv-x="222" d="M3 -85L63 149H189L129 -85H3Z" />
<glyph unicode="-" glyph-name="uni002D" horiz-adv-x="321" d="M41 288H280V180H41V288Z" />
<glyph unicode="." glyph-name="uni002E" horiz-adv-x="228" d="M37 0V163H190V0H37Z" />
<glyph unicode="/" glyph-name="uni002F" horiz-adv-x="376" d="M361 688L166 0H39L234 688H361Z" />
<glyph unicode="0" glyph-name="uni0030" horiz-adv-x="576" d="M545 254Q545 118 474 54T284 -10Q166 -10 99 53T31 252Q31 376 97 453T288 531Q421 531 483 453T545 254ZM401 261Q401 353 370 383T287 413Q233 413 205 382T176 261Q176 171 205 140T287 108Q336
108 368 137T401 261Z" />
<glyph unicode="1" glyph-name="uni0031" horiz-adv-x="404" d="M387 0H43V114H153V407H43V521H287V114H387V0Z" />
<glyph unicode="2" glyph-name="uni0032" horiz-adv-x="537" d="M71 492Q129 516 180 523T268 531Q386 531 433 485T481 379Q481 314 437 268T325 186T190 114H402L409 173L516 163L501 0H47L35 106Q114 156 183 198T294 278T337 358Q337 390 311 403T250 417Q232
417 208 414T168 402L153 328L50 339L71 492Z" />
<glyph unicode="3" glyph-name="uni0033" horiz-adv-x="533" d="M71 492Q129 516 184 523T272 531Q362 531 421 492T481 370Q481 321 456 283T369 219V215Q440 201 472 158T504 55Q504 -46 430 -93T254 -141Q146 -141 92 -93T37 38L146 71Q146 36 170 5T253 -27Q310
-27 334 3T359 71Q359 121 319 142T207 165V253Q266 253 293 270T329 309T337 346Q337 417 253 417Q235 417 210 414T168 402L153 328L50 339L71 492Z" />
<glyph unicode="4" glyph-name="uni0034" horiz-adv-x="570" d="M451 -130H317V29H29L15 140L213 521H451V140H549L539 29H451V-130ZM317 140V407H279L143 140H317Z" />
<glyph unicode="5" glyph-name="uni0035" horiz-adv-x="522" d="M498 71Q498 -47 424 -94T248 -141Q140 -141 86 -93T31 38L140 71Q140 36 164 5T247 -27Q304 -27 328 3T353 71Q353 134 307 153T200 172Q176 172 152 170T106 167L63 208V521H463L482 338L368 328L350
407H187V280Q196 281 205 281T224 281Q294 281 357 264T459 201T498 71Z" />
<glyph unicode="6" glyph-name="uni0036" horiz-adv-x="536" d="M504 216Q504 116 442 53T272 -10Q144 -10 88 80T31 311Q31 403 56 482T138 611T295 660Q350 660 402 640T489 570L412 493Q373 546 290 546Q231 546 206 505T176 365Q175 358 175 342Q192 374 227
397T321 420Q422 420 463 355T504 216ZM366 211Q366 257 346 284T277 311Q228 311 204 286T178 221Q183 163 204 136T274 108Q366 108 366 211Z" />
<glyph unicode="7" glyph-name="uni0037" horiz-adv-x="495" d="M490 458L260 -130H128L345 408H141V299H24V521H474L490 458Z" />
<glyph unicode="8" glyph-name="uni0038" horiz-adv-x="539" d="M511 170Q511 86 441 38T269 -10Q161 -10 96 33T30 159Q30 226 69 261T161 319Q113 346 79 384T44 484Q44 563 106 611T270 660Q367 660 427 616T488 498Q488 442 455 411T375 358Q428 330 469 287T511
170ZM354 475Q354 522 328 537T270 552Q188 552 188 493Q188 458 224 435T310 389Q354 423 354 475ZM367 168Q367 210 323 236T222 288Q196 271 181 248T165 191Q165 150 191 124T271 98Q318 98 342 118T367 168Z" />
<glyph unicode="9" glyph-name="uni0039" horiz-adv-x="535" d="M31 305Q31 405 93 468T263 531Q391 531 447 441T504 210Q504 118 479 39T396 -90T240 -139Q184 -139 132 -119T46 -49L123 28Q162 -25 245 -25Q304 -25 329 16T359 156Q360 163 360 179Q343 148
308 125T214 101Q113 101 72 166T31 305ZM169 310Q169 264 188 237T258 210Q307 210 331 235T357 300Q352 358 331 385T261 413Q169 413 169 310Z" />
<glyph unicode=":" glyph-name="uni003A" horiz-adv-x="248" d="M59 289V451H193V289H59ZM59 0V162H193V0H59Z" />
<glyph unicode=";" glyph-name="uni003B" horiz-adv-x="249" d="M61 289V451H195V289H61ZM192 149L132 -85H6L66 149H192Z" />
<glyph unicode="&lt;" glyph-name="uni003C" horiz-adv-x="397" d="M344 14L25 257V301L343 549V427L156 282L344 136V14Z" />
<glyph unicode="=" glyph-name="uni003D" horiz-adv-x="545" d="M44 347V435H501V347H44ZM44 125V213H501V125H44Z" />
<glyph unicode="&gt;" glyph-name="uni003E" horiz-adv-x="395" d="M371 257L52 14V136L240 282L53 427V549L371 301V257Z" />
<glyph unicode="?" glyph-name="uni003F" horiz-adv-x="481" d="M136 456L33 467L54 620Q112 644 163 651T251 659Q340 659 398 620T456 513Q456 462 427 432T360 384T292 351T263 312Q263 284 304 284V205Q123 182 123 296Q123 344 151 368T216 408T281 440T309
491Q309 542 233 542Q215 542 191 539T151 527L136 456ZM151 0V145H302V0H151Z" />
<glyph unicode="@" glyph-name="uni0040" horiz-adv-x="894" d="M292 419Q334 443 374 451T451 460Q548 460 598 418T649 307V111Q649 92 662 84T689 76Q730 76 742 124T755 228Q755 415 670 486T461 558Q312 558 224 473T136 228Q136 106 184 33T309 -73T469
-106Q515 -106 568 -95T667 -52L709 -130Q661 -162 595 -182T451 -202Q336 -202 240 -153T87 -11T29 214Q29 338 82 437T231 595T456 654Q554 654 647 616T801 494T862 275Q862 210 843 144T780 34T661 -10Q607 -10 568 14T521 81Q501 46 466 18T375 -10Q326 -10
279 19T231 119Q231 175 263 204T346 245T449 256Q465 256 484 255T520 252V267Q520 327 505 347T452 368Q441 368 425 366T392 355L368 286L270 297L292 419ZM520 190Q504 192 488 194T455 196Q420 196 395 184T369 134Q369 112 381 97T422 82Q456 82 486 107T520
187V190Z" />
<glyph unicode="A" glyph-name="uni0041" horiz-adv-x="687" d="M687 0H428V114H480L456 180H235L208 114H269V0H13V114H72L258 536H168V650H391L625 114H687V0ZM420 276L352 459H346L273 276H420Z" />
<glyph unicode="B" glyph-name="uni0042" horiz-adv-x="622" d="M598 193Q598 115 546 58T381 0H39V114H109V536H39V650H377Q466 650 520 609T575 498Q575 447 544 409T457 362V358Q527 348 562 303T598 193ZM431 463Q431 507 405 521T342 536H243V384H332Q389
384 410 407T431 463ZM454 198Q454 280 355 280H243V114H346Q454 114 454 198Z" />
<glyph unicode="C" glyph-name="uni0043" horiz-adv-x="644" d="M594 69Q562 34 492 12T351 -10Q212 -10 118 79T24 314Q24 390 56 470T161 605T357 660Q440 660 500 636T591 582L607 431L498 421L484 507Q458 524 421 533T351 542Q267 542 218 486T168 323Q168
210 222 159T360 108Q439 108 484 135L498 232L607 222L594 69Z" />
<glyph unicode="D" glyph-name="uni0044" horiz-adv-x="698" d="M673 328Q673 180 586 90T345 0H39V114H109V536H39V650H337Q504 650 588 561T673 328ZM529 326Q529 536 334 536H243V114H334Q428 114 478 164T529 326Z" />
<glyph unicode="E" glyph-name="uni0045" horiz-adv-x="593" d="M541 0H39V114H109V536H39V650H535L555 460L441 450L421 536H243V383H517V270H243V114H427L447 200L561 190L541 0Z" />
<glyph unicode="F" glyph-name="uni0046" horiz-adv-x="567" d="M547 450L433 440L413 536H243V354H516V241H243V114H349V0H39V114H109V536H39V650H527L547 450Z" />
<glyph unicode="G" glyph-name="uni0047" horiz-adv-x="682" d="M658 246H626V0H522L509 68Q479 33 433 12T323 -10Q186 -10 106 85T25 320Q25 460 110 560T360 660Q439 660 503 637T600 582L618 441L510 431L492 507Q466 524 427 533T354 542Q274 542 222 488T169
322Q169 214 218 161T347 108Q413 108 452 143T491 242V246H364V359H658V246Z" />
<glyph unicode="H" glyph-name="uni0048" horiz-adv-x="761" d="M722 0H448V114H518V273H243V114H313V0H39V114H109V536H39V650H313V536H243V386H518V536H448V650H722V536H652V114H722V0Z" />
<glyph unicode="I" glyph-name="uni0049" horiz-adv-x="352" d="M313 0H39V114H109V536H39V650H313V536H243V114H313V0Z" />
<glyph unicode="J" glyph-name="uni004A" horiz-adv-x="486" d="M457 536H397V185Q397 87 343 39T200 -10Q117 -10 72 27T5 113L99 184Q116 140 139 127T187 114Q228 114 245 134T263 184V536H149V650H457V536Z" />
<glyph unicode="K" glyph-name="uni004B" horiz-adv-x="674" d="M665 0H382V114H442L323 274H243V114H298V0H39V114H109V536H39V650H301V536H243V383H325L440 536H384V650H654V536H581L426 341L598 114H665V0Z" />
<glyph unicode="L" glyph-name="uni004C" horiz-adv-x="558" d="M527 0H39V114H109V536H39V650H334V536H243V114H413L433 240L547 230L527 0Z" />
<glyph unicode="M" glyph-name="uni004D" horiz-adv-x="900" d="M869 536H789V114H859V0H598V114H655V362H651L480 53H424L240 374H236V114H298V0H41V114H111V536H31V650H223L454 247H458L675 650H869V536Z" />
<glyph unicode="N" glyph-name="uni004E" horiz-adv-x="760" d="M733 536H663V0L588 -1L239 412H235V114H325V0H40V114H110V536H29V650H206L534 264H538V536H444V650H733V536Z" />
<glyph unicode="O" glyph-name="uni004F" horiz-adv-x="712" d="M688 326Q688 188 600 89T353 -10Q194 -10 109 89T24 324Q24 466 114 563T357 660Q513 660 600 562T688 326ZM543 322Q543 426 495 484T356 542Q259 542 214 481T169 327Q169 238 213 173T360 108Q455
108 499 167T543 322Z" />
<glyph unicode="P" glyph-name="uni0050" horiz-adv-x="598" d="M584 438Q584 327 512 273T343 218H243V114H343V0H39V114H109V536H39V650H337Q458 650 521 593T584 438ZM440 436Q440 484 414 510T320 536H243V331H318Q387 331 413 360T440 436Z" />
<glyph unicode="Q" glyph-name="uni0051" horiz-adv-x="718" d="M688 326Q688 194 611 102L677 34L593 -49L518 28Q445 -10 353 -10Q194 -10 109 89T24 324Q24 466 114 563T357 660Q513 660 600 562T688 326ZM543 322Q543 426 495 484T356 542Q259 542 214 481T169
327Q169 238 213 173T360 108Q399 108 430 119L332 220L416 303L518 198Q543 248 543 322Z" />
<glyph unicode="R" glyph-name="uni0052" horiz-adv-x="638" d="M626 0H460L331 248H243V114H313V0H39V114H109V536H39V650H333Q454 650 519 601T584 453Q584 387 550 343T460 276L548 114H626V0ZM440 450Q440 499 411 517T309 536H243V354H307Q384 354 412 379T440 450Z" />
<glyph unicode="S" glyph-name="uni0053" horiz-adv-x="557" d="M526 197Q526 96 458 43T271 -10Q205 -10 140 7T36 58L56 219L163 209L162 130Q196 112 220 109T261 105Q314 105 348 118T382 181Q382 235 342 253T248 282Q201 290 154 305T74 356T42 462Q42 571
116 615T278 660Q342 660 400 641T489 588L495 447L388 437L379 513Q354 530 329 536T279 542Q239 542 213 528T186 479Q186 438 220 422T298 396Q338 388 391 374T485 320T526 197Z" />
<glyph unicode="T" glyph-name="uni0054" horiz-adv-x="651" d="M629 430L515 420L495 536H392V114H498V0H158V114H258V536H155L135 420L21 430L41 650H609L629 430Z" />
<glyph unicode="U" glyph-name="uni0055" horiz-adv-x="719" d="M692 536H634V269Q634 200 608 136T521 31T356 -10Q208 -10 147 71T86 258V536H28V650H296V536H220V262Q220 195 252 152T363 108Q440 108 474 152T509 269V536H433V650H692V536Z" />
<glyph unicode="V" glyph-name="uni0056" horiz-adv-x="685" d="M679 536H620L389 0H296L66 536H5V650H274V536H215L348 207H354L484 536H423V650H679V536Z" />
<glyph unicode="W" glyph-name="uni0057" horiz-adv-x="989" d="M977 536H925L746 0H651L498 420H493L347 0H250L60 536H4V650H263V536H203L300 222H306L422 536H371V650H630V536H584L699 216H705L791 536H721V650H977V536Z" />
<glyph unicode="X" glyph-name="uni0058" horiz-adv-x="666" d="M658 0H393V114H439L327 246L224 114H278V0H6V114H76L258 333L81 536H21V650H282V536H238L340 419L434 536H387V650H643V536H583L409 335L600 114H658V0Z" />
<glyph unicode="Y" glyph-name="uni0059" horiz-adv-x="646" d="M636 536H580L391 254V114H497V0H157V114H257V255L62 536H4V650H273V536H219L328 372H334L442 536H380V650H636V536Z" />
<glyph unicode="Z" glyph-name="uni005A" horiz-adv-x="589" d="M550 0H24L21 69L351 535V536H175L155 435L41 445L61 650H547L549 589L214 116V114H436L456 234L570 224L550 0Z" />
<glyph unicode="[" glyph-name="uni005B" horiz-adv-x="299" d="M67 -248V785H290V698H176V-161H290V-248H67Z" />
<glyph unicode="\" glyph-name="uni005C" horiz-adv-x="421" d="M60 688H187L382 0H255L60 688Z" />
<glyph unicode="]" glyph-name="uni005D" horiz-adv-x="299" d="M232 -248H9V-161H123V698H9V785H232V-248Z" />
<glyph unicode="^" glyph-name="uni005E" horiz-adv-x="469" d="M189 650H270L441 367H323L230 525L147 367H28L189 650Z" />
<glyph unicode="_" glyph-name="uni005F" horiz-adv-x="502" d="M35 -68H467V-153H35V-68Z" />
<glyph unicode="`" glyph-name="uni0060" horiz-adv-x="440" d="M374 557L340 508L145 599L212 700L374 557Z" />
<glyph unicode="a" glyph-name="uni0061" horiz-adv-x="506" d="M68 419Q127 443 166 451T261 460Q334 460 387 422T440 307V111Q440 76 471 76Q480 76 490 79L491 11Q452 -10 410 -10Q321 -10 311 79V80Q292 46 257 18T166 -10Q117 -10 72 19T27 119Q27 202 93
229T237 256Q280 256 311 252V267Q311 302 302 335T237 368Q217 368 201 366T168 355L151 291L48 302L68 419ZM311 184V190Q295 192 279 194T246 196Q212 196 186 184T160 134Q160 112 172 97T213 82Q247 82 276 106T311 184Z" />
<glyph unicode="b" glyph-name="uni0062" d="M530 236Q530 136 478 63T323 -10Q220 -10 178 68Q176 51 174 34T168 0H39Q46 35 51 70T56 139V590H-4V688H185V365Q203 404 239 432T337 460Q422 460 476 401T530 236ZM396 225Q396 290 368 324T294 358Q242 358 214
320T185 232V221Q185 166 212 129T291 91Q335 91 365 123T396 225Z" />
<glyph unicode="c" glyph-name="uni0063" horiz-adv-x="471" d="M455 168Q448 106 402 48T246 -10Q148 -10 85 47T21 218Q21 338 90 399T257 460Q294 460 336 451T420 419L440 282L337 271L322 345Q283 358 254 358Q213 358 184 327T155 224Q155 92 258 92Q334
92 347 188L455 168Z" />
<glyph unicode="d" glyph-name="uni0064" horiz-adv-x="570" d="M556 0H367V84Q348 45 311 18T213 -10Q124 -10 73 51T22 217Q22 318 72 389T223 460Q278 460 313 438T367 382V590H277V688H496V97H556V0ZM367 228V239Q367 295 338 326T264 358Q221 358 189 326T156
225Q156 160 186 126T257 92Q308 92 337 135T367 228Z" />
<glyph unicode="e" glyph-name="uni0065" horiz-adv-x="483" d="M463 142Q458 82 404 36T253 -10Q152 -10 87 47T21 217Q21 321 80 390T247 460Q341 460 399 406T459 264Q459 231 452 199H156Q167 92 262 92Q314 92 332 117T355 162L463 142ZM326 274Q330 308
312 338T247 368Q207 368 185 342T157 274H326Z" />
<glyph unicode="f" glyph-name="uni0066" horiz-adv-x="343" d="M269 698Q300 698 337 689T405 657L425 535L325 524L303 595Q282 601 267 601Q217 601 217 541V451H328V359H217V97H292V0H28V97H88V359H33V451H88V520Q88 590 134 644T269 698Z" />
<glyph unicode="g" glyph-name="uni0067" horiz-adv-x="568" d="M555 353H495V23Q495 -85 434 -153T246 -222Q176 -222 112 -194T19 -87L118 -31Q166 -120 247 -120Q299 -120 332 -83T366 23V82Q348 48 313 24T218 0Q139 0 80 55T21 217Q21 318 75 389T224 460Q277
460 312 438T366 381V451H555V353ZM366 228V239Q366 295 338 326T265 358Q222 358 194 326T165 225Q165 160 190 131T257 102Q310 102 338 140T366 228Z" />
<glyph unicode="h" glyph-name="uni0068" horiz-adv-x="581" d="M568 0H319V97H379V254Q379 312 359 337T300 362Q256 362 232 335T205 264V97H265V0H16V97H76V590H16V688H205V382Q250 460 350 460Q414 460 461 422T508 304V97H568V0Z" />
<glyph unicode="i" glyph-name="uni0069" horiz-adv-x="299" d="M87 531V665H216V531H87ZM281 0H32V97H92V353H27V451H221V97H281V0Z" />
<glyph unicode="j" glyph-name="uni006A" horiz-adv-x="265" d="M82 531V665H211V531H82ZM211 16Q211 -112 164 -173T-14 -222L-18 -137Q23 -137 52 -115T82 16V353H12V451H211V16Z" />
<glyph unicode="k" glyph-name="uni006B" horiz-adv-x="553" d="M539 0H308V97H350L272 186H205V97H246V0H16V97H76V590H11V688H205V277H280L346 353H292V451H518V353H469L372 243L500 97H539V0Z" />
<glyph unicode="l" glyph-name="uni006C" horiz-adv-x="285" d="M267 0H18V97H78V590H13V688H207V97H267V0Z" />
<glyph unicode="m" glyph-name="uni006D" horiz-adv-x="876" d="M864 0H675V254Q675 312 656 337T598 362Q552 362 532 332T511 255V97H571V0H382V254Q382 312 363 337T305 362Q258 362 238 332T218 255V97H304V0H29V97H89V353H30V451H218V383Q261 460 355 460Q404
460 445 436T502 363Q542 460 649 460Q710 460 757 422T804 304V97H864V0Z" />
<glyph unicode="n" glyph-name="uni006E" horiz-adv-x="593" d="M581 0H332V97H392V254Q392 312 373 337T315 362Q269 362 244 334T218 259V97H278V0H29V97H89V353H24V451H218V382Q263 460 363 460Q427 460 474 422T521 304V97H581V0Z" />
<glyph unicode="o" glyph-name="uni006F" horiz-adv-x="523" d="M503 225Q503 118 433 54T255 -10Q151 -10 86 50T20 220Q20 319 80 390T262 461Q384 461 443 391T503 225ZM370 229Q370 298 338 330T260 362Q210 362 182 327T153 227Q153 169 179 129T259 89Q309
89 339 126T370 229Z" />
<glyph unicode="p" glyph-name="uni0070" horiz-adv-x="571" d="M549 236Q549 136 497 63T342 -10Q247 -10 204 57V-113H284V-213H15V-113H75V354H10V451H204V365Q222 404 258 432T356 460Q442 460 495 401T549 236ZM415 223Q415 289 386 323T310 358Q260 358
234 321T205 227L204 211Q204 156 233 124T310 92Q356 92 385 124T415 223Z" />
<glyph unicode="q" glyph-name="uni0071" d="M555 -213H286V-113H366V84Q347 46 311 18T214 -10Q128 -10 75 49T21 214Q21 314 73 387T228 460Q283 460 319 437T375 377Q377 395 380 413T388 451H513Q505 410 500 371T495 291V-113H555V-213ZM366 228V239Q366
295 337 326T262 358Q218 358 187 326T155 225Q155 160 183 126T255 92Q308 92 337 135T366 228Z" />
<glyph unicode="r" glyph-name="uni0072" horiz-adv-x="441" d="M314 457Q333 457 356 452T403 432L423 274L325 263L308 340Q288 352 273 352Q251 352 235 335T218 285V97H298V0H29V97H89V353H24V451H208V365Q219 404 243 430T314 457Z" />
<glyph unicode="s" glyph-name="uni0073" horiz-adv-x="459" d="M435 138Q435 63 376 27T221 -10Q172 -10 123 0T28 34L46 160L146 149V93Q164 87 184 86T214 84Q251 84 278 96T305 132Q305 161 264 170T169 188T74 225T33 320Q33 403 97 431T231 460Q321 460
400 419L411 304L311 293L303 356Q270 367 232 367Q207 367 190 357T172 324Q172 295 211 286T303 267T395 231T435 138Z" />
<glyph unicode="t" glyph-name="uni0074" horiz-adv-x="398" d="M406 140Q396 62 352 26T238 -10Q163 -10 117 27T70 135V359H6V451H70V588H199V451H361V359H199V157Q199 98 253 98Q265 98 285 108T312 169L406 140Z" />
<glyph unicode="u" glyph-name="uni0075" horiz-adv-x="585" d="M571 0H377V69Q332 -9 232 -9Q168 -9 121 29T74 147V354H14V451H203V197Q203 138 222 114T280 89Q326 89 351 119T377 196V354H304V451H506V97H571V0Z" />
<glyph unicode="v" glyph-name="uni0076" horiz-adv-x="527" d="M520 354H474L313 0H220L50 354H2V451H232V354H189L277 165H283L350 354H314V451H520V354Z" />
<glyph unicode="w" glyph-name="uni0077" horiz-adv-x="760" d="M752 354H711L589 0H493L376 270H370L264 0H173L48 354H7V451H247V354H185L240 178H246L352 451H429L552 182H558L595 354H536V451H752V354Z" />
<glyph unicode="x" glyph-name="uni0078" horiz-adv-x="537" d="M523 0H296V97H329L263 168L198 97H227V0H16V97H78L202 222L66 354H21V451H249V354H218L279 287L344 354H314V451H510V354H465L342 236L479 97H523V0Z" />
<glyph unicode="y" glyph-name="uni0079" horiz-adv-x="530" d="M523 354H479L334 0L291 -113H350V-213H101V-113H173L209 -7L51 354H5V451H235V354H190L282 146H288L356 354H317V451H523V354Z" />
<glyph unicode="z" glyph-name="uni007A" horiz-adv-x="477" d="M430 0H36L23 68L265 354H130L110 285L17 293L33 451H429L439 383L190 97H335L356 168L458 158L430 0Z" />
<glyph unicode="{" glyph-name="uni007B" horiz-adv-x="299" d="M119 267Q186 259 213 231T240 173Q240 141 219 95T176 -2T154 -97Q154 -161 217 -161H281V-248H217Q120 -248 84 -202T47 -101Q47 -48 68 7T111 108T132 182Q132 219 95 229T34 239H15V296H34Q56
296 94 306T132 352Q132 379 111 426T69 529T47 639Q47 698 85 741T217 785H281V698H217Q154 698 154 634Q154 590 175 539T218 440T240 360Q240 332 213 303T119 267Z" />
<glyph unicode="|" glyph-name="uni007C" horiz-adv-x="244" d="M177 730V-80H67V730H177Z" />
<glyph unicode="}" glyph-name="uni007D" horiz-adv-x="299" d="M180 271Q112 279 86 307T59 365Q59 397 80 443T123 540T145 635Q145 699 82 699H18V786H82Q180 786 216 740T252 639Q252 586 231 531T189 430T167 356Q167 319 204 309T265 299H284V242H265Q242
242 205 232T167 186Q167 159 188 112T231 9T252 -101Q252 -160 214 -203T82 -247H18V-160H82Q145 -160 145 -96Q145 -52 124 -1T81 98T59 178Q59 206 85 235T180 271Z" />
<glyph unicode="~" glyph-name="uni007E" horiz-adv-x="568" d="M379 176Q338 176 305 192T241 225T175 242Q156 242 136 231T90 180L19 228Q82 360 178 360Q214 360 243 344T303 311T376 294Q404 294 424 307T470 363L550 310Q522 253 480 215T379 176Z" />
<glyph unicode="&#xa0;" glyph-name="uni00A0" horiz-adv-x="187" />
<glyph unicode="&#xa1;" glyph-name="uni00A1" horiz-adv-x="247" d="M47 309V454H198V309H47ZM201 -196H47L77 222H171L201 -196Z" />
<glyph unicode="&#xa2;" glyph-name="uni00A2" horiz-adv-x="494" d="M466 168Q460 112 422 59T297 -7V-84H228V-8Q142 0 87 56T32 218Q32 325 88 385T228 457V529H297V458Q328 455 362 446T431 419L451 282L348 271L333 340Q314 346 297 349V100Q348 112 358
188L466 168ZM171 224Q171 126 228 103V346Q202 336 187 307T171 224Z" />
<glyph unicode="&#xa3;" glyph-name="uni00A3" horiz-adv-x="495" d="M466 83Q458 61 418 31T314 0H42V96Q76 116 84 144T92 212H34V287H92V334Q92 431 146 479T280 528Q314 528 357 517T428 478L441 361L342 353L329 418Q315 425 304 426T286 428Q253 428 237
408T221 335V287H362V212H221Q220 180 212 151T165 98H288Q333 98 360 109T411 143L466 83Z" />
<glyph unicode="&#xa4;" glyph-name="uni00A4" horiz-adv-x="478" d="M88 264Q88 306 107 338L27 418L75 465L153 388Q191 415 239 415Q285 415 325 388L403 465L451 418L371 338Q390 303 390 264Q390 221 368 185L451 102L403 55L320 137Q283 113 239 113Q195
113 157 137L75 55L27 102L110 185Q88 221 88 264ZM198 264Q198 243 210 228T239 213Q256 213 268 228T280 264Q280 285 268 300T239 315Q222 315 210 300T198 264Z" />
<glyph unicode="&#xa5;" glyph-name="uni00A5" horiz-adv-x="595" d="M264 423H224L305 306H310L390 423H342V521H565V423H522L423 286H495V219H375L365 204V190H495V123H365V98H452V0H155V98H236V123H107V190H236V206L226 219H107V286H176L74 423H29V521H264V423Z" />
<glyph unicode="&#xa6;" glyph-name="uni00A6" horiz-adv-x="240" d="M175 730V426H65V730H175ZM175 224V-80H65V224H175Z" />
<glyph unicode="&#xa7;" glyph-name="uni00A7" horiz-adv-x="631" d="M532 151Q532 80 475 35T321 -10Q279 -10 205 0T77 34L96 170L196 159L191 94Q209 88 251 84T314 80Q358 80 381 98T405 143Q405 180 366 188T278 201Q224 206 167 217T71 254T32 332Q32 373
56 398T111 438Q92 468 92 509Q92 579 148 619T307 660Q351 660 403 651T506 619L519 490L419 479L409 549Q396 556 366 563T304 571Q272 571 246 560T219 519Q219 487 250 470T325 446Q372 439 438 431T554 394T605 298Q605 254 583 228T529 182Q532 168 532 151ZM488
282Q488 314 451 328T365 347T278 357Q253 360 226 367T172 387Q149 374 149 350Q149 316 195 309T325 291Q362 286 402 279T474 253Q478 257 483 263T488 282Z" />
<glyph unicode="&#xa8;" glyph-name="uni00A8" horiz-adv-x="412" d="M57 531V665H186V531H57ZM242 531V665H371V531H242Z" />
<glyph unicode="&#xa9;" glyph-name="uni00A9" horiz-adv-x="596" d="M566 261Q566 148 488 71T298 -7Q187 -7 109 70T30 260Q30 372 108 450T299 529Q412 529 489 451T566 261ZM496 261Q496 343 445 403T299 463Q205 463 153 403T100 260Q100 177 153 118T298
58Q386 58 441 118T496 261ZM409 156Q393 140 360 129T292 118Q236 118 194 151T151 260Q151 324 189 366T295 409Q335 409 363 400T407 376L415 303L363 298L356 339Q336 354 299 354Q225 354 225 263Q225 214 246 194T299 174Q335 174 356 188L363 234L415 229L409
156Z" />
<glyph unicode="&#xaa;" glyph-name="uni00AA" horiz-adv-x="375" d="M174 643Q154 643 133 634L120 589L43 597L57 675Q88 689 119 697T185 705Q321 705 321 605V480Q321 458 338 458Q342 458 350 460L351 413Q321 398 291 398Q229 398 222 457Q208 434 185 416T125
398Q91 398 59 417T27 483Q27 537 73 554T173 572Q185 572 197 572T221 570V576Q221 598 217 620T174 643ZM221 523V526Q199 531 180 531Q161 531 148 524T134 494Q134 463 166 463Q215 463 221 523Z" />
<glyph unicode="&#xab;" glyph-name="uni00AB" horiz-adv-x="471" d="M270 25H163L25 271L163 511H270L153 271L270 25ZM440 25H333L195 271L333 511H440L323 271L440 25Z" />
<glyph unicode="&#xac;" glyph-name="uni00AC" horiz-adv-x="569" d="M434 75V237H41V325H522V75H434Z" />
<glyph unicode="&#xae;" glyph-name="uni00AE" horiz-adv-x="561" d="M280 159Q176 159 103 231T30 409Q30 513 103 586T281 660Q386 660 458 587T531 409Q531 305 458 232T280 159ZM280 224Q364 224 412 279T461 409Q461 484 414 539T281 595Q196 595 148 540T100
409Q100 333 148 279T280 224ZM167 334H194V494H167V542H289Q393 542 393 464Q393 415 344 395L379 334H408V286H335L284 382H256V334H282V286H167V334ZM275 427Q305 427 315 436T326 462Q326 494 277 494H256V427H275Z" />
<glyph unicode="&#xaf;" glyph-name="uni00AF" horiz-adv-x="335" d="M310 536H42V634H310V536Z" />
<glyph unicode="&#xb0;" glyph-name="uni00B0" horiz-adv-x="363" d="M181 342Q104 342 63 387T22 500Q22 568 65 614T183 660Q262 660 301 614T341 501Q341 434 300 388T181 342ZM181 432Q204 432 220 447T236 501Q236 540 221 555T183 570Q160 570 144 555T127
500Q127 462 143 447T181 432Z" />
<glyph unicode="&#xb1;" glyph-name="uni00B1" horiz-adv-x="418" d="M36 249V337H168V467H256V337H383V249H256V120H168V249H36ZM36 0V88H383V0H36Z" />
<glyph unicode="&#xb2;" glyph-name="uni00B2" horiz-adv-x="368" d="M110 654L33 660L47 759Q74 770 110 777T183 785Q262 785 294 754T326 687Q326 646 293 608T218 539T149 490H254L266 545L347 535L337 415H34L25 485Q66 516 110 550T184 616T215 674Q215
710 166 710Q141 710 120 699L110 654Z" />
<glyph unicode="&#xb3;" glyph-name="uni00B3" horiz-adv-x="351" d="M113 658L36 664L49 759Q76 771 113 777T181 784Q246 784 279 757T313 691Q313 638 252 610V608Q291 598 308 573T325 517Q325 465 281 437T167 408Q114 408 77 430T30 507L103 532Q119 487
162 487Q216 487 216 531Q216 556 193 565T137 576V632Q162 634 183 640T204 675Q204 709 164 709Q141 709 122 699L113 658Z" />
<glyph unicode="&#xb4;" glyph-name="uni00B4" horiz-adv-x="440" d="M404 599L209 508L175 557L337 700L404 599Z" />
<glyph unicode="&#xb5;" glyph-name="uni00B5" horiz-adv-x="592" d="M78 -213V353H18V451H207V197Q207 138 226 114T284 89Q329 89 354 117T381 191V353H308V451H510V98H575V0H381V69Q336 -9 236 -9Q225 -9 207 -7V-213H78Z" />
<glyph unicode="&#xb6;" glyph-name="uni00B6" horiz-adv-x="657" d="M620 650V541H556V0H436V541H396V0H276V310H230Q144 310 85 349T25 484Q25 552 79 601T236 650H620Z" />
<glyph unicode="&#xb7;" glyph-name="uni00B7" horiz-adv-x="230" d="M38 251V414H191V251H38Z" />
<glyph unicode="&#xb8;" glyph-name="uni00B8" horiz-adv-x="256" d="M301 -121Q301 -171 260 -190T171 -209Q92 -209 55 -179L78 -109Q89 -116 108 -124T156 -132Q192 -132 192 -111Q192 -100 185 -93T153 -86H116V6H204V-41H212Q262 -41 281 -66T301 -121Z" />
<glyph unicode="&#xb9;" glyph-name="uni00B9" horiz-adv-x="282" d="M29 490H102V704H29V779H203V490H268V415H29V490Z" />
<glyph unicode="&#xba;" glyph-name="uni00BA" horiz-adv-x="374" d="M20 547Q20 612 61 658T187 705Q272 705 313 659T354 552Q354 481 305 440T182 398Q112 398 66 437T20 547ZM128 553Q128 518 142 496T185 474Q246 474 246 554Q246 596 228 612T186 629Q128
629 128 553Z" />
<glyph unicode="&#xbb;" glyph-name="uni00BB" horiz-adv-x="471" d="M308 25H201L318 271L201 511H308L446 271L308 25ZM138 25H31L148 271L31 511H138L276 271L138 25Z" />
<glyph unicode="&#xbc;" glyph-name="uni00BC" horiz-adv-x="744" d="M592 650L401 325L220 0H132L330 337L504 650H592ZM36 361H109V575H36V650H210V361H275V286H36V361ZM560 0V65H395L385 138L491 364H661V143H719L712 65H661V0H560ZM544 289L473 143H560V289H544Z" />
<glyph unicode="&#xbd;" glyph-name="uni00BD" horiz-adv-x="785" d="M592 650L401 325L220 0H132L330 337L504 650H592ZM34 361H107V575H34V650H208V361H273V286H34V361ZM528 239L451 245L465 344Q492 355 528 362T601 370Q680 370 712 338T744 272Q744 231 711
193T636 125T567 75H672L684 130L765 120L755 0H452L443 70Q484 101 528 135T602 201T633 259Q633 295 584 295Q559 295 538 284L528 239Z" />
<glyph unicode="&#xbe;" glyph-name="uni00BE" horiz-adv-x="776" d="M116 534L39 540L52 635Q79 647 116 653T184 660Q248 660 282 633T316 567Q316 514 255 486V484Q294 474 311 449T328 393Q328 341 284 313T170 284Q118 284 81 306T33 383L106 408Q122 363
165 363Q219 363 219 407Q219 432 196 441T140 452V508Q166 510 186 516T207 551Q207 585 167 585Q144 585 125 575L116 534ZM619 650L428 325L247 0H159L357 337L531 650H619ZM592 0V65H427L417 138L523 364H693V143H751L744 65H693V0H592ZM576 289L505 143H592V289H576Z"
/>
<glyph unicode="&#xbf;" glyph-name="uni00BF" horiz-adv-x="474" d="M327 454V309H176V454H327ZM342 -2L445 -13L424 -166Q366 -190 315 -197T227 -205Q138 -205 80 -166T22 -59Q22 -8 51 22T118 70T186 103T215 142Q215 170 174 170V249Q355 272 355 158Q355
110 327 86T262 46T197 14T169 -37Q169 -88 245 -88Q263 -88 287 -85T327 -73L342 -2Z" />
<glyph unicode="&#xc0;" glyph-name="uni00C0" horiz-adv-x="687" d="M413 745L397 688L182 716L211 833L413 745ZM687 0H428V114H480L456 180H235L208 114H269V0H13V114H72L258 536H168V650H391L625 114H687V0ZM420 276L352 459H346L273 276H420Z" />
<glyph unicode="&#xc1;" glyph-name="uni00C1" horiz-adv-x="687" d="M512 716L297 688L281 745L483 833L512 716ZM687 0H428V114H480L456 180H235L208 114H269V0H13V114H72L258 536H168V650H391L625 114H687V0ZM420 276L352 459H346L273 276H420Z" />
<glyph unicode="&#xc2;" glyph-name="uni00C2" horiz-adv-x="687" d="M495 737L467 685L332 745L208 685L179 738L314 844H359L495 737ZM687 0H428V114H480L456 180H235L208 114H269V0H13V114H72L258 536H168V650H391L625 114H687V0ZM420 276L352 459H346L273 276H420Z" />
<glyph unicode="&#xc3;" glyph-name="uni00C3" horiz-adv-x="687" d="M477 820Q477 776 461 738T392 700Q355 700 328 715T266 731Q233 731 224 698L174 714Q172 742 190 783T260 824Q293 824 321 809T375 793Q389 793 402 801T423 831L477 820ZM687 0H428V114H480L456
180H235L208 114H269V0H13V114H72L258 536H168V650H391L625 114H687V0ZM420 276L352 459H346L273 276H420Z" />
<glyph unicode="&#xc4;" glyph-name="uni00C4" horiz-adv-x="687" d="M184 705V839H313V705H184ZM369 705V839H498V705H369ZM687 0H428V114H480L456 180H235L208 114H269V0H13V114H72L258 536H168V650H391L625 114H687V0ZM420 276L352 459H346L273 276H420Z" />
<glyph unicode="&#xc5;" glyph-name="uni00C5" horiz-adv-x="687" d="M447 783Q447 742 422 716T341 689Q288 689 263 714T238 780Q238 822 264 847T344 873Q399 873 423 848T447 783ZM367 785Q367 795 364 804T343 813Q318 813 318 780Q318 749 342 749Q367 749
367 785ZM687 0H428V114H480L456 180H235L208 114H269V0H13V114H72L258 536H168V650H391L625 114H687V0ZM420 276L352 459H346L273 276H420Z" />
<glyph unicode="&#xc6;" glyph-name="uni00C6" horiz-adv-x="934" d="M879 0H381V114H451V180H235L204 114H260V0H4V114H68L281 536H199V650H873L893 460L779 450L759 536H585V383H859V270H585V114H765L785 200L899 190L879 0ZM451 276V536H403L280 276H451Z" />
<glyph unicode="&#xc7;" glyph-name="uni00C7" horiz-adv-x="645" d="M472 -121Q472 -171 431 -190T342 -209Q263 -209 226 -179L249 -109Q260 -116 279 -124T327 -132Q363 -132 363 -111Q363 -100 356 -93T324 -86H287V-4Q172 16 99 101T25 314Q25 390 57 470T161
605T358 660Q441 660 500 636T592 582L608 431L499 421L485 507Q460 524 423 533T352 542Q268 542 219 486T169 323Q169 210 223 159T361 108Q440 108 485 135L499 232L608 222L595 69Q565 37 503 16T375 -9V-41H383Q433 -41 452 -66T472 -121Z" />
<glyph unicode="&#xc8;" glyph-name="uni00C8" horiz-adv-x="592" d="M414 745L398 688L183 716L212 833L414 745ZM541 0H39V114H109V536H39V650H535L555 460L441 450L421 536H243V383H517V270H243V114H427L447 200L561 190L541 0Z" />
<glyph unicode="&#xc9;" glyph-name="uni00C9" horiz-adv-x="592" d="M480 716L265 688L249 745L451 833L480 716ZM541 0H39V114H109V536H39V650H535L555 460L441 450L421 536H243V383H517V270H243V114H427L447 200L561 190L541 0Z" />
<glyph unicode="&#xca;" glyph-name="uni00CA" horiz-adv-x="592" d="M491 737L463 685L328 745L204 685L175 738L310 844H355L491 737ZM541 0H39V114H109V536H39V650H535L555 460L441 450L421 536H243V383H517V270H243V114H427L447 200L561 190L541 0Z" />
<glyph unicode="&#xcb;" glyph-name="uni00CB" horiz-adv-x="592" d="M163 705V839H292V705H163ZM348 705V839H477V705H348ZM541 0H39V114H109V536H39V650H535L555 460L441 450L421 536H243V383H517V270H243V114H427L447 200L561 190L541 0Z" />
<glyph unicode="&#xcc;" glyph-name="uni00CC" horiz-adv-x="352" d="M269 745L253 688L38 716L67 833L269 745ZM313 0H39V114H109V536H39V650H313V536H243V114H313V0Z" />
<glyph unicode="&#xcd;" glyph-name="uni00CD" horiz-adv-x="352" d="M305 716L90 688L74 745L276 833L305 716ZM313 0H39V114H109V536H39V650H313V536H243V114H313V0Z" />
<glyph unicode="&#xce;" glyph-name="uni00CE" horiz-adv-x="352" d="M334 737L306 685L171 745L47 685L18 738L153 844H198L334 737ZM313 0H39V114H109V536H39V650H313V536H243V114H313V0Z" />
<glyph unicode="&#xcf;" glyph-name="uni00CF" horiz-adv-x="352" d="M24 705V839H153V705H24ZM209 705V839H338V705H209ZM313 0H39V114H109V536H39V650H313V536H243V114H313V0Z" />
<glyph unicode="&#xd0;" glyph-name="uni00D0" horiz-adv-x="700" d="M675 328Q675 180 588 90T347 0H41V114H111V287H44V397H111V536H41V650H339Q506 650 590 561T675 328ZM531 326Q531 536 336 536H245V397H366V287H245V114H336Q430 114 480 164T531 326Z" />
<glyph unicode="&#xd1;" glyph-name="uni00D1" horiz-adv-x="760" d="M526 820Q526 776 510 738T441 700Q404 700 377 715T315 731Q282 731 273 698L223 714Q221 742 239 783T309 824Q342 824 370 809T424 793Q438 793 451 801T472 831L526 820ZM733 536H663V0L588
-1L239 412H235V114H325V0H40V114H110V536H29V650H206L534 264H538V536H444V650H733V536Z" />
<glyph unicode="&#xd2;" glyph-name="uni00D2" horiz-adv-x="711" d="M448 745L432 688L217 716L246 833L448 745ZM688 326Q688 188 600 89T353 -10Q194 -10 109 89T24 324Q24 466 114 563T357 660Q513 660 600 562T688 326ZM543 322Q543 426 495 484T356 542Q259
542 214 481T169 327Q169 238 213 173T360 108Q455 108 499 167T543 322Z" />
<glyph unicode="&#xd3;" glyph-name="uni00D3" horiz-adv-x="711" d="M522 716L307 688L291 745L493 833L522 716ZM688 326Q688 188 600 89T353 -10Q194 -10 109 89T24 324Q24 466 114 563T357 660Q513 660 600 562T688 326ZM543 322Q543 426 495 484T356 542Q259
542 214 481T169 327Q169 238 213 173T360 108Q455 108 499 167T543 322Z" />
<glyph unicode="&#xd4;" glyph-name="uni00D4" horiz-adv-x="711" d="M518 737L490 685L355 745L231 685L202 738L337 844H382L518 737ZM688 326Q688 188 600 89T353 -10Q194 -10 109 89T24 324Q24 466 114 563T357 660Q513 660 600 562T688 326ZM543 322Q543
426 495 484T356 542Q259 542 214 481T169 327Q169 238 213 173T360 108Q455 108 499 167T543 322Z" />
<glyph unicode="&#xd5;" glyph-name="uni00D5" horiz-adv-x="711" d="M515 820Q515 776 499 738T430 700Q393 700 366 715T304 731Q271 731 262 698L212 714Q210 742 228 783T298 824Q331 824 359 809T413 793Q427 793 440 801T461 831L515 820ZM688 326Q688 188
600 89T353 -10Q194 -10 109 89T24 324Q24 466 114 563T357 660Q513 660 600 562T688 326ZM543 322Q543 426 495 484T356 542Q259 542 214 481T169 327Q169 238 213 173T360 108Q455 108 499 167T543 322Z" />
<glyph unicode="&#xd6;" glyph-name="uni00D6" horiz-adv-x="711" d="M205 705V839H334V705H205ZM390 705V839H519V705H390ZM688 326Q688 188 600 89T353 -10Q194 -10 109 89T24 324Q24 466 114 563T357 660Q513 660 600 562T688 326ZM543 322Q543 426 495 484T356
542Q259 542 214 481T169 327Q169 238 213 173T360 108Q455 108 499 167T543 322Z" />
<glyph unicode="&#xd7;" glyph-name="uni00D7" horiz-adv-x="372" d="M94 120L31 182L125 276L33 368L95 430L187 338L277 428L339 366L249 276L340 185L278 122L187 213L94 120Z" />
<glyph unicode="&#xd8;" glyph-name="uni00D8" horiz-adv-x="714" d="M689 326Q689 188 601 89T354 -10Q249 -10 172 37L141 0H26L105 95Q25 186 25 324Q25 466 115 563T358 660Q457 660 535 614L564 650H690L609 554Q689 462 689 326ZM170 327Q170 257 195 204L455
518Q412 542 357 542Q260 542 215 481T170 327ZM544 322Q544 394 519 447L255 135Q298 108 361 108Q456 108 500 167T544 322Z" />
<glyph unicode="&#xd9;" glyph-name="uni00D9" horiz-adv-x="719" d="M476 745L460 688L245 716L274 833L476 745ZM692 536H634V269Q634 200 608 136T521 31T356 -10Q208 -10 147 71T86 258V536H28V650H296V536H220V262Q220 195 252 152T363 108Q440 108 474 152T509
269V536H433V650H692V536Z" />
<glyph unicode="&#xda;" glyph-name="uni00DA" horiz-adv-x="719" d="M528 716L313 688L297 745L499 833L528 716ZM692 536H634V269Q634 200 608 136T521 31T356 -10Q208 -10 147 71T86 258V536H28V650H296V536H220V262Q220 195 252 152T363 108Q440 108 474 152T509
269V536H433V650H692V536Z" />
<glyph unicode="&#xdb;" glyph-name="uni00DB" horiz-adv-x="719" d="M517 737L489 685L354 745L230 685L201 738L336 844H381L517 737ZM692 536H634V269Q634 200 608 136T521 31T356 -10Q208 -10 147 71T86 258V536H28V650H296V536H220V262Q220 195 252 152T363
108Q440 108 474 152T509 269V536H433V650H692V536Z" />
<glyph unicode="&#xdc;" glyph-name="uni00DC" horiz-adv-x="719" d="M209 705V839H338V705H209ZM394 705V839H523V705H394ZM692 536H634V269Q634 200 608 136T521 31T356 -10Q208 -10 147 71T86 258V536H28V650H296V536H220V262Q220 195 252 152T363 108Q440
108 474 152T509 269V536H433V650H692V536Z" />
<glyph unicode="&#xdd;" glyph-name="uni00DD" horiz-adv-x="646" d="M479 716L264 688L248 745L450 833L479 716ZM636 536H580L391 254V114H497V0H157V114H257V255L62 536H4V650H273V536H219L328 372H334L442 536H380V650H636V536Z" />
<glyph unicode="&#xde;" glyph-name="uni00DE" horiz-adv-x="604" d="M313 0H39V114H109V536H39V650H313V536H243V516H347Q594 516 594 335Q594 231 522 188T353 144H243V114H313V0ZM330 432H243V227H328Q397 227 423 256T450 332Q450 380 424 406T330 432Z" />
<glyph unicode="&#xdf;" glyph-name="uni00DF" horiz-adv-x="685" d="M681 137Q681 62 622 26T459 -10Q410 -10 361 0T266 34L284 160L384 149V97Q402 91 422 90T452 88Q496 88 523 98T551 131Q551 162 510 171T415 190T320 225T279 316Q279 371 309 397T378 437T447
471T477 530Q477 602 359 602Q282 602 250 572T217 481V0H28V98H88V353H33V451H88V493Q88 572 127 616T228 679T361 698Q496 698 552 649T608 538Q608 486 580 458T513 412T447 377T418 329Q418 301 444 290T510 272T589 255T654 217T681 137Z" />
<glyph unicode="&#xe0;" glyph-name="uni00E0" horiz-adv-x="506" d="M332 557L298 508L103 599L170 700L332 557ZM68 419Q127 443 166 451T261 460Q334 460 387 422T440 307V111Q440 76 471 76Q480 76 490 79L491 11Q452 -10 410 -10Q321 -10 311 79V80Q292 46
257 18T166 -10Q117 -10 72 19T27 119Q27 202 93 229T237 256Q280 256 311 252V267Q311 302 302 335T237 368Q217 368 201 366T168 355L151 291L48 302L68 419ZM311 184V190Q295 192 279 194T246 196Q212 196 186 184T160 134Q160 112 172 97T213 82Q247 82 276
106T311 184Z" />
<glyph unicode="&#xe1;" glyph-name="uni00E1" horiz-adv-x="506" d="M402 599L207 508L173 557L335 700L402 599ZM68 419Q127 443 166 451T261 460Q334 460 387 422T440 307V111Q440 76 471 76Q480 76 490 79L491 11Q452 -10 410 -10Q321 -10 311 79V80Q292 46
257 18T166 -10Q117 -10 72 19T27 119Q27 202 93 229T237 256Q280 256 311 252V267Q311 302 302 335T237 368Q217 368 201 366T168 355L151 291L48 302L68 419ZM311 184V190Q295 192 279 194T246 196Q212 196 186 184T160 134Q160 112 172 97T213 82Q247 82 276
106T311 184Z" />
<glyph unicode="&#xe2;" glyph-name="uni00E2" horiz-adv-x="506" d="M413 557L379 508L244 575L132 507L97 558L232 684H277L413 557ZM68 419Q127 443 166 451T261 460Q334 460 387 422T440 307V111Q440 76 471 76Q480 76 490 79L491 11Q452 -10 410 -10Q321
-10 311 79V80Q292 46 257 18T166 -10Q117 -10 72 19T27 119Q27 202 93 229T237 256Q280 256 311 252V267Q311 302 302 335T237 368Q217 368 201 366T168 355L151 291L48 302L68 419ZM311 184V190Q295 192 279 194T246 196Q212 196 186 184T160 134Q160 112 172
97T213 82Q247 82 276 106T311 184Z" />
<glyph unicode="&#xe3;" glyph-name="uni00E3" horiz-adv-x="506" d="M407 647Q407 604 391 561T324 517Q286 517 258 537T199 558Q166 558 154 515L104 531Q102 550 110 579T137 632T189 655Q223 655 251 636T306 617Q340 617 353 658L407 647ZM68 419Q127 443
166 451T261 460Q334 460 387 422T440 307V111Q440 76 471 76Q480 76 490 79L491 11Q452 -10 410 -10Q321 -10 311 79V80Q292 46 257 18T166 -10Q117 -10 72 19T27 119Q27 202 93 229T237 256Q280 256 311 252V267Q311 302 302 335T237 368Q217 368 201 366T168
355L151 291L48 302L68 419ZM311 184V190Q295 192 279 194T246 196Q212 196 186 184T160 134Q160 112 172 97T213 82Q247 82 276 106T311 184Z" />
<glyph unicode="&#xe4;" glyph-name="uni00E4" horiz-adv-x="506" d="M283 531V665H412V531H283ZM98 531V665H227V531H98ZM68 419Q127 443 166 451T261 460Q334 460 387 422T440 307V111Q440 76 471 76Q480 76 490 79L491 11Q452 -10 410 -10Q321 -10 311 79V80Q292
46 257 18T166 -10Q117 -10 72 19T27 119Q27 202 93 229T237 256Q280 256 311 252V267Q311 302 302 335T237 368Q217 368 201 366T168 355L151 291L48 302L68 419ZM311 184V190Q295 192 279 194T246 196Q212 196 186 184T160 134Q160 112 172 97T213 82Q247 82
276 106T311 184Z" />
<glyph unicode="&#xe5;" glyph-name="uni00E5" horiz-adv-x="506" d="M360 608Q360 567 335 541T254 514Q202 514 177 539T151 605Q151 647 177 672T257 698Q312 698 336 673T360 608ZM280 610Q280 620 277 629T256 638Q231 638 231 605Q231 574 255 574Q280 574
280 610ZM68 419Q127 443 166 451T261 460Q334 460 387 422T440 307V111Q440 76 471 76Q480 76 490 79L491 11Q452 -10 410 -10Q321 -10 311 79V80Q292 46 257 18T166 -10Q117 -10 72 19T27 119Q27 202 93 229T237 256Q280 256 311 252V267Q311 302 302 335T237
368Q217 368 201 366T168 355L151 291L48 302L68 419ZM311 184V190Q295 192 279 194T246 196Q212 196 186 184T160 134Q160 112 172 97T213 82Q247 82 276 106T311 184Z" />
<glyph unicode="&#xe6;" glyph-name="uni00E6" horiz-adv-x="773" d="M753 142Q748 82 694 36T543 -10Q409 -10 349 80Q325 45 283 18T177 -10Q120 -10 71 19T22 119Q22 202 91 229T237 256Q256 256 275 255T311 252V267Q311 302 302 335T237 368Q217 368 201
366T168 355L151 291L48 302L68 419Q127 443 166 451T261 460Q344 460 395 414Q454 460 537 460Q632 460 690 405T749 262Q749 230 742 199H451Q461 97 553 97Q605 97 623 119T645 162L753 142ZM615 267Q622 303 604 333T537 363Q462 363 452 267H615ZM160 134Q160
112 172 97T213 82Q247 82 279 107T311 187V190Q295 192 279 194T246 196Q212 196 186 184T160 134Z" />
<glyph unicode="&#xe7;" glyph-name="uni00E7" horiz-adv-x="471" d="M385 -122Q385 -172 344 -191T255 -210Q176 -210 139 -180L162 -110Q173 -118 192 -125T240 -133Q276 -133 276 -112Q276 -102 269 -95T237 -87H200V-6Q120 6 71 62T21 218Q21 338 90 399T257
460Q294 460 336 451T420 419L440 282L337 271L322 345Q283 358 254 358Q213 358 184 327T155 224Q155 92 258 92Q334 92 347 188L455 168Q449 112 412 59T288 -7V-42H296Q346 -42 365 -67T385 -122Z" />
<glyph unicode="&#xe8;" glyph-name="uni00E8" horiz-adv-x="483" d="M323 557L289 508L94 599L161 700L323 557ZM463 142Q458 82 404 36T253 -10Q152 -10 87 47T21 217Q21 321 80 390T247 460Q341 460 399 406T459 264Q459 231 452 199H156Q167 92 262 92Q314
92 332 117T355 162L463 142ZM326 274Q330 308 312 338T247 368Q207 368 185 342T157 274H326Z" />
<glyph unicode="&#xe9;" glyph-name="uni00E9" horiz-adv-x="483" d="M430 599L235 508L201 557L363 700L430 599ZM463 142Q458 82 404 36T253 -10Q152 -10 87 47T21 217Q21 321 80 390T247 460Q341 460 399 406T459 264Q459 231 452 199H156Q167 92 262 92Q314
92 332 117T355 162L463 142ZM326 274Q330 308 312 338T247 368Q207 368 185 342T157 274H326Z" />
<glyph unicode="&#xea;" glyph-name="uni00EA" horiz-adv-x="483" d="M414 557L380 508L245 575L133 507L98 558L233 684H278L414 557ZM463 142Q458 82 404 36T253 -10Q152 -10 87 47T21 217Q21 321 80 390T247 460Q341 460 399 406T459 264Q459 231 452 199H156Q167
92 262 92Q314 92 332 117T355 162L463 142ZM326 274Q330 308 312 338T247 368Q207 368 185 342T157 274H326Z" />
<glyph unicode="&#xeb;" glyph-name="uni00EB" horiz-adv-x="483" d="M102 531V665H231V531H102ZM287 531V665H416V531H287ZM463 142Q458 82 404 36T253 -10Q152 -10 87 47T21 217Q21 321 80 390T247 460Q341 460 399 406T459 264Q459 231 452 199H156Q167 92
262 92Q314 92 332 117T355 162L463 142ZM326 274Q330 308 312 338T247 368Q207 368 185 342T157 274H326Z" />
<glyph unicode="&#xec;" glyph-name="uni00EC" horiz-adv-x="299" d="M207 557L173 508L-22 599L45 700L207 557ZM32 98H92V353H27V451H221V98H281V0H32V98Z" />
<glyph unicode="&#xed;" glyph-name="uni00ED" horiz-adv-x="299" d="M287 599L92 508L58 557L220 700L287 599ZM32 98H92V353H27V451H221V98H281V0H32V98Z" />
<glyph unicode="&#xee;" glyph-name="uni00EE" horiz-adv-x="299" d="M291 557L257 508L122 575L10 507L-25 558L110 684H155L291 557ZM32 98H92V353H27V451H221V98H281V0H32V98Z" />
<glyph unicode="&#xef;" glyph-name="uni00EF" horiz-adv-x="299" d="M174 531V665H303V531H174ZM-11 531V665H118V531H-11ZM32 98H92V353H27V451H221V98H281V0H32V98Z" />
<glyph unicode="&#xf0;" glyph-name="uni00F0" horiz-adv-x="528" d="M116 510L159 574L102 604L157 698Q192 681 222 665L258 718L327 678L290 623Q378 561 440 469T503 251V225Q503 117 433 54T255 -10Q151 -10 86 50T20 218Q20 328 86 394T248 460Q281 460
313 450Q282 494 227 532L184 468L116 510ZM261 352Q159 352 159 227Q159 170 183 134T260 98Q308 98 336 130T364 220V257Q364 304 334 328T261 352Z" />
<glyph unicode="&#xf1;" glyph-name="uni00F1" horiz-adv-x="593" d="M451 647Q451 604 435 561T368 517Q330 517 302 537T243 558Q210 558 198 515L148 531Q146 550 154 579T181 632T233 655Q267 655 295 636T350 617Q384 617 397 658L451 647ZM581 0H332V97H392V254Q392
312 373 337T315 362Q269 362 244 334T218 259V97H278V0H29V97H89V353H24V451H218V382Q263 460 363 460Q427 460 474 422T521 304V97H581V0Z" />
<glyph unicode="&#xf2;" glyph-name="uni00F2" horiz-adv-x="522" d="M337 557L303 508L108 599L175 700L337 557ZM503 225Q503 118 433 54T255 -10Q151 -10 86 50T20 220Q20 319 80 390T262 461Q384 461 443 391T503 225ZM370 229Q370 298 338 330T260 362Q210
362 182 327T153 227Q153 169 179 129T259 89Q309 89 339 126T370 229Z" />
<glyph unicode="&#xf3;" glyph-name="uni00F3" horiz-adv-x="522" d="M450 599L255 508L221 557L383 700L450 599ZM503 225Q503 118 433 54T255 -10Q151 -10 86 50T20 220Q20 319 80 390T262 461Q384 461 443 391T503 225ZM370 229Q370 298 338 330T260 362Q210
362 182 327T153 227Q153 169 179 129T259 89Q309 89 339 126T370 229Z" />
<glyph unicode="&#xf4;" glyph-name="uni00F4" horiz-adv-x="522" d="M430 557L396 508L261 575L149 507L114 558L249 684H294L430 557ZM503 225Q503 118 433 54T255 -10Q151 -10 86 50T20 220Q20 319 80 390T262 461Q384 461 443 391T503 225ZM370 229Q370 298
338 330T260 362Q210 362 182 327T153 227Q153 169 179 129T259 89Q309 89 339 126T370 229Z" />
<glyph unicode="&#xf5;" glyph-name="uni00F5" horiz-adv-x="522" d="M416 647Q416 604 399 561T333 517Q295 517 267 537T208 558Q175 558 163 515L113 531Q112 550 119 579T146 632T198 655Q232 655 261 636T315 617Q349 617 362 658L416 647ZM503 225Q503 118
433 54T255 -10Q151 -10 86 50T20 220Q20 319 80 390T262 461Q384 461 443 391T503 225ZM370 229Q370 298 338 330T260 362Q210 362 182 327T153 227Q153 169 179 129T259 89Q309 89 339 126T370 229Z" />
<glyph unicode="&#xf6;" glyph-name="uni00F6" horiz-adv-x="522" d="M107 531V665H236V531H107ZM292 531V665H421V531H292ZM503 225Q503 118 433 54T255 -10Q151 -10 86 50T20 220Q20 319 80 390T262 461Q384 461 443 391T503 225ZM370 229Q370 298 338 330T260
362Q210 362 182 327T153 227Q153 169 179 129T259 89Q309 89 339 126T370 229Z" />
<glyph unicode="&#xf7;" glyph-name="uni00F7" horiz-adv-x="405" d="M126 361V524H279V361H126ZM376 237H29V325H376V237ZM126 39V202H279V39H126Z" />
<glyph unicode="&#xf8;" glyph-name="uni00F8" horiz-adv-x="524" d="M504 225Q504 117 434 54T256 -10Q180 -10 124 22L105 0H20L75 62Q21 122 21 219Q21 318 81 389T263 460Q340 460 397 427L418 451H504L447 387Q504 322 504 225ZM160 227Q160 191 168 167L318
337Q294 352 261 352Q160 352 160 227ZM365 229Q365 259 357 285L205 113Q228 98 260 98Q309 98 337 132T365 229Z" />
<glyph unicode="&#xf9;" glyph-name="uni00F9" horiz-adv-x="585" d="M328 557L294 508L99 599L166 700L328 557ZM571 0H377V69Q332 -9 232 -9Q168 -9 121 29T74 147V354H14V451H203V197Q203 138 222 114T280 89Q326 89 351 119T377 196V354H304V451H506V97H571V0Z" />
<glyph unicode="&#xfa;" glyph-name="uni00FA" horiz-adv-x="585" d="M449 599L254 508L220 557L382 700L449 599ZM571 0H377V69Q332 -9 232 -9Q168 -9 121 29T74 147V354H14V451H203V197Q203 138 222 114T280 89Q326 89 351 119T377 196V354H304V451H506V97H571V0Z" />
<glyph unicode="&#xfb;" glyph-name="uni00FB" horiz-adv-x="585" d="M437 557L403 508L268 575L156 507L121 558L256 684H301L437 557ZM571 0H377V69Q332 -9 232 -9Q168 -9 121 29T74 147V354H14V451H203V197Q203 138 222 114T280 89Q326 89 351 119T377 196V354H304V451H506V97H571V0Z"
/>
<glyph unicode="&#xfc;" glyph-name="uni00FC" horiz-adv-x="585" d="M111 531V665H240V531H111ZM296 531V665H425V531H296ZM571 0H377V69Q332 -9 232 -9Q168 -9 121 29T74 147V354H14V451H203V197Q203 138 222 114T280 89Q326 89 351 119T377 196V354H304V451H506V97H571V0Z"
/>
<glyph unicode="&#xfd;" glyph-name="uni00FD" horiz-adv-x="529" d="M436 599L241 508L207 557L369 700L436 599ZM523 354H479L334 0L291 -113H350V-213H101V-113H173L209 -7L51 354H5V451H235V354H190L282 146H288L356 354H317V451H523V354Z" />
<glyph unicode="&#xfe;" glyph-name="uni00FE" horiz-adv-x="545" d="M-11 -115H49V590H-16V688H178V365Q196 404 232 432T330 460Q416 460 469 401T523 236Q523 136 471 63T316 -10Q221 -10 178 57V-115H258V-213H-11V-115ZM281 97Q324 97 354 126T384 225Q384
290 357 321T288 353Q238 353 209 315T178 227V211Q178 155 207 126T281 97Z" />
<glyph unicode="&#xff;" glyph-name="uni00FF" horiz-adv-x="529" d="M127 531V665H256V531H127ZM312 531V665H441V531H312ZM523 354H479L334 0L291 -113H350V-213H101V-113H173L209 -7L51 354H5V451H235V354H190L282 146H288L356 354H317V451H523V354Z" />
<glyph unicode="&#x2013;" glyph-name="uni2013" horiz-adv-x="590" d="M44 278H546V193H44V278Z" />
<glyph unicode="&#x2014;" glyph-name="uni2014" horiz-adv-x="1028" d="M44 278H984V193H44V278Z" />
<glyph unicode="&#x2018;" glyph-name="uni2018" horiz-adv-x="230" d="M213 639L153 405H27L87 639H213Z" />
<glyph unicode="&#x2019;" glyph-name="uni2019" horiz-adv-x="222" d="M23 496L83 730H209L149 496H23Z" />
<glyph unicode="&#x201a;" glyph-name="uni201A" horiz-adv-x="222" d="M3 -85L63 149H189L129 -85H3Z" />
<glyph unicode="&#x201c;" glyph-name="uni201C" horiz-adv-x="401" d="M213 669L153 435H27L87 669H213ZM389 669L329 435H203L263 669H389Z" />
<glyph unicode="&#x201d;" glyph-name="uni201D" horiz-adv-x="395" d="M13 436L73 670H199L139 436H13ZM189 436L249 670H375L315 436H189Z" />
<glyph unicode="&#x201e;" glyph-name="uni201E" horiz-adv-x="400" d="M3 -85L63 149H189L129 -85H3ZM181 -85L241 149H367L307 -85H181Z" />
<glyph unicode="&#x2022;" glyph-name="uni2022" horiz-adv-x="351" d="M50 242Q50 295 86 332T175 369Q228 369 265 332T302 242Q302 190 265 154T175 117Q122 117 86 153T50 242Z" />
<glyph unicode="&#x2039;" glyph-name="uni2039" horiz-adv-x="301" d="M270 25H163L25 271L163 511H270L153 271L270 25Z" />
<glyph unicode="&#x203a;" glyph-name="uni203A" horiz-adv-x="301" d="M138 25H31L148 271L31 511H138L276 271L138 25Z" />
</font>
</defs>
</svg>
